Filecrypt zeigt vereinzelt Files als "n/a". Die Downloads sind trotzdem komplett.

DNS SERVER AENDERNum der staatlichen Zensur zu umgehen. Sollten wir von eurem Provider geseprrt werden, nutzt den TOR BROWSER oder ändert euren DNS SERVER.

Filmwünsche können bei uns im Forum abgegeben werden

Wir Speichern Nicht




 
 
 
Top Releases
Ant-Man.2015.German.AC3.DL.1...
In.den.Gaengen.2018.German.A...
Oceans.8.2018.MULTi.COMPLETE...
Outlaw.King.2018.German.DL.1...
Outlaw.King.2018.German.DL.7...
Ploetzlich.Papa.2016.German....
Gun.City.2018.German.AC3.108...
Ant.Man.and.the.Wasp.2018.Ge...
Ant.Man.and.the.Wasp.2018.Ge...
Ant.Man.and.the.Wasp.2018.Ge...

Cinedubs
Predator.Upgrade.German.DL.A...
Predator.Upgrade.German.DL.A...
10×10.2018.German.AC3D.DL.1...
10×10.2018.German.AC3D.DL.7...
Sicario.2.German.DL.AC3.Dubb...
Sicario.2.German.DL.AC3.Dubb...
Hotel.Artemis.German.DL.AC3....
Hotel.Artemis.German.DL.AC3....
Mission.Impossible.Fallout.2...
Mission.Impossible.Fallout.2...

Neuerscheinungen 2017-18
In.Darkness.2018.German.AC3D...
Die.Fuersten.der.Dunkelheit....
Rambo.II.Der.Auftrag.Rambo.F...
Rambo.First.Blood.1982.REMAS...
The.Keeping.Hours.2017.Germa...
Appgefahren.Alles.ist.moegli...
Nicht.ohne.Eltern.2017.Germa...
Appgefahren.Alles.ist.moegli...
Appgefahren.Alles.ist.moegli...
Bent.Korruption.kennt.keine....

XXX
BoundGangBangs.18.10.31.Chlo...
BrazzersExxtra.18.10.30.Diam...
BrazzersExxtra.18.10.31.Bonn...
ATKGirlfriends.18.10.29.Chlo...
BigTitVenera.18.07.26.Venera...
BabyGotBoobs.18.10.29.Tia.Cy...
BangBus.18.10.31.Penelope.Wh...
BreakingAsses.18.10.28.Bibi....
BritneyAmber.18.10.30.Naught...
AllOver30.18.10.30.Mimi.Smit...
BigNaturals.18.10.30.Michele...
BlacksOnBlondes.18.10.30.Can...
Beauty-Angels.18.10.29.Eliza...
BigTitVenera.18.08.23.Lollip...
BarbaraBieberOfficial.18.10....
BarbaraBieberOfficial.18.09....
BurningAngel.18.10.30.Ariana...
BoldlyGirls.18.10.29.Susy.Ga...
BarbaraBieberOfficial.18.10....
BarbaraBieberOfficial.18.08....

3D
Die.Unglaublichen.2.3D.2018....
Die.Unglaublichen.2.2018.3D....
Die.Unglaublichen.2.2018.3D....
Sharknado.6.The.Last.One.3D....
Deep.Kleine.Helden.der.Tiefs...
Deep.3D.2017.MULTI.COMPLETE....
Detective.Dee.und.die.Legend...
Detective.Dee.und.die.Legend...
Skyscraper.3D.German.DL.AC3....
Ant-Man.and.the.Wasp.2018.3D...
Jurassic.World.Das.gefallene...
Jurassic.World.Das.gefallene...
Best.of.3D.vol.10.-.12.GERMA...
Die.Biene.Maja.2.Die.Honigsp...
Sharknado.6.The.Last.One.3D....

Old_Stuff
Detective.Dee.und.das.Geheim...
Detective.Dee.Und.Der.Fluch....
Ghost.Rider.Spirit.of.Vengea...
Species.IV.Das.Erwachen.2007...
Species.IV.Das.Erwachen.2007...
Hotel.Transsilvanien.2012.Ge...
The.Dead.2010.German.DL.1080...
The.Dead.2.India.2013.German...
Britney.Spears.Live.The.Femm...
Buffy.The.Vampire.Slayer.199...
IMAX.Ride.Around.The.World.2...
Schimanski.-.Duisburg.Ruhror...
Akte.X.S02.German.DTS.DL.108...
How.I.Met.Your.Mother.S02.Ge...
Akte.X.S01.German.DTS.DL.108...

Filme
The.Viking.-.Der.letzte.Drac...
The.Viral.Factor.2012.German...
Matrix.Reloaded.USA.2003.US....
The.Veteran.2011.German.DL.1...
Eyyvah.eyvah.2010.German.108...
Natty.Ganns.Reise.ins.Abente...
Ein.Rabbi.im.Wilden.Westen.a...
League.of.Gods.2016.German.A...
Enemy.Mine.1985.German.AC3.D...
House.of.Good.and.Evil.2013....
La.Habanera.1937.German.1080...
Revenge.Eine.gefaehrliche.Af...
Nicht.ohne.Eltern.2017.Germa...
Rambo.3.1988.Remastered.Germ...
Rambo.3.1988.Remastered.Germ...
Rambo.First.Blood.1982.Remas...
Flucht.Aus.Absolom.GERMAN.19...
Flucht.Aus.Absolom.GERMAN.19...
StartUp.S03.COMPLETE.German....
The.Purge.S01.COMPLETE.Germa...
The.Purge.S01.COMPLETE.Germa...
Hotel.Artemis.German.DL.AC3....
Sicario.2.German.DL.AC3.Dubb...
The.Sinner.S02.COMPLETE.Germ...

 
 
Eyyvah.eyvah.2010.German.1080p.HDTV.x264-NORETAiL

Jahr: 2010
Genre: Komödie
Sprache: Deutsch AC3
Laufzeit: 1h 37mn
Bitrate: 6 732 Kbps
Format: MKV
Größe: 4.57 GiB
Release:

Beschreibung:

Hüseyin ist Forscher und lebt bei seinen Großeltern in einem Dorf in Thrakien. Seine zwei großen Leidenschaften sind seine Karinette und die Krankenschwester Müjgan. Während er recht zufrieden mit den beiden sein Leben fristet, trennt ihn ein unerwarteter Zwischenfall von seinem Heimatdorf. Hüseyins abenteuerliche Reise wird ein garantierter Lacherfolg. In der Großstadt Istanbul erfährt Hüseyin zunächst von seiner Klarinette Unterstützung. Dann trifft er auf die Sängerin Firuzan. Firuzan fegt wie ein Wirbelsturm über die Bühnen der Istanbuler Nachtlokale und arbeitet emsig an ihrem ersten Album. Ihr Leben ist ohnehin kunterbunt und chaotisch. Mit Hüseyin kommen unglaubliche Komik und ein großes Abenteuer hinzu.



Complete name                            : eyyvah.eyvah.2010.german.1080p.hdtv.x264-noretail.mkv
Format                                   : Matroska
Format version                           : Version 2
File size                                : 4.57 GiB
Duration                                 : 1h 37mn
Overall bit rate                         : 6 732 Kbps
Writing application                      : mkvmerge v4.1.1 ('Bouncin' Back') built on Jul  3 2010 22:54:08
Writing library                          : libebml v1.0.0 + libmatroska v1.0

Video
ID                                       : 1
Format                                   : AVC
Format/Info                              : Advanced Video Codec
Format profile                           : [email protected]
Format settings, CABAC                   : Yes
Format settings, ReFrames                : 4 frames
Codec ID                                 : V_MPEG4/ISO/AVC
Duration                                 : 1h 37mn
Bit rate                                 : 6 406 Kbps
Width                                    : 1 920 pixels
Height                                   : 1 040 pixels
Display aspect ratio                     : 1.85:1
Frame rate mode                          : Constant
Frame rate                               : 25.000 fps
Color space                              : YUV
Chroma subsampling                       : 4:2:0
Bit depth                                : 8 bits
Scan type                                : Progressive
Bits/(Pixel*Frame)                       : 0.128
Stream size                              : 4.35 GiB (95%)
Writing library                          : x264 core 155 r2901 7d0ff22
Encoding settings                        : cabac=1 / ref=4 / deblock=1:-3:-3 / analyse=0x3:0x133 / me=umh / subme=8 / psy=1 / psy_rd=1.00:0.15 / mixed_ref=1 / me_range=16 / chroma_me=1 / trellis=1 / 8x8dct=1 / cqm=0 / deadzone=21,11 / fast_pskip=0 / chroma_qp_offset=-3 / threads=32 / lookahead_threads=5 / sliced_threads=0 / nr=0 / decimate=1 / interlaced=0 / bluray_compat=0 / constrained_intra=0 / bframes=3 / b_pyramid=2 / b_adapt=2 / b_bias=0 / direct=3 / weightb=1 / open_gop=0 / weightp=2 / keyint=240 / keyint_min=24 / scenecut=40 / intra_refresh=0 / rc_lookahead=50 / rc=crf / mbtree=1 / crf=19.0 / qcomp=0.60 / qpmin=0 / qpmax=69 / qpstep=4 / ip_ratio=1.40 / aq=1:1.00
Language                                 : English
Default                                  : Yes
Forced                                   : No

Audio
ID                                       : 2
Format                                   : AC-3
Format/Info                              : Audio Coding 3
Mode extension                           : CM (complete main)
Format settings, Endianness              : Big
Codec ID                                 : A_AC3
Duration                                 : 1h 37mn
Bit rate mode                            : Constant
Bit rate                                 : 192 Kbps
Channel(s)                               : 6 channels
Channel(s)_Original                      : 2 channels
Channel positions                        : Front: L R
Sampling rate                            : 48.0 KHz
Bit depth                                : 16 bits
Compression mode                         : Lossy
Stream size                              : 134 MiB (3%)
Language                                 : German
Default                                  : Yes
Forced                                   : No


Download:
Share Online Share OnlineShare OnlineShare Online
 

Kommentare